Torrent Finder

Lalys.Angels.XXX.DVDRip.XviD-NYMPHO

Torrent Description:

General
Complete name: Lalys.Angels.XXX.DVDRip.XviD-NYMPHO
Format: .avi
File size: 700 MiB
Duration: 1h 54mn
Overall bit rate: 854 Kbps
Language: English
Subtitles: None

Video
ID: 0
Format: MPEG-4 Visual
Format profile: Simple@L3
Format settings, BVOP: No
Format settings, QPel: No
Format settings, GMC: No warppoints
Format settings, Matrix: Default (H.263)
Codec ID: XVID
Codec ID/Hint: XviD
Duration: 1h 54mn
Bit rate: 687 Kbps
Width: 624 pixels
Height: 272 pixels
Display aspect ratio: 2.25:1
Frame rate: 25.000 fps
Resolution: 24 bits
Colorimetry: 4:2:0
Scan type: Progressive
Bits/(Pixel*Frame): 0.162
Stream size: 563 MiB (80%)
Writing library: XviD 1.1.2 (UTC 2006-11-01)

Audio
ID: 1
Format: MPEG Audio
Format version: Version 1
Format profile: Layer 3
Format_Settings_Mode: Joint stereo / MS Stereo
Codec ID: 55
Codec ID/Hint: MP3
Duration: 1h 54mn
Bit rate mode: Constant
Bit rate: 128 Kbps
Channel(s): 2 channels
Sampling rate: 48.0 KHz
Resolution: 16 bits
Video delay: 24ms
Stream size: 105 MiB (15%)
Alignment: Split accross interleaves
Interleave, duration: 24 ms (0.60 video frame)
Writing library: LAME3.96.1