Torrent Finder

Desi Girl Homemade xXx Hindi Scandal With BF@Mastitorrents

Torrent Description:

mastitorrents.com http://mastitorrents.com/forums/index.phpGeneralFormat : AVIFormat/Info : Audio Video InterleaveFile size : 30.2 MiBDuration : 7mn 7sOverall bit rate : 591 KbpsWriting application : Lavf52.13.0VideoFormat : S-Mpeg 4 v2Codec ID : MP42Codec ID/Info : Microsoft MPEG-4 V2Duration : 7mn 7sBit rate : 482 KbpsWidth : 176 pixelsHeight : 144 pixelsDisplay aspect ratio : 1.222Frame rate : 29.970 fpsResolution : 24 bitsBits/(Pixel*Frame) : 0.635Stream size : 24.6 MiB (81%)AudioID : 1Format : MPEG AudioFormat version : Version 1Format profile : Layer 3Format_Settings_Mode : Joint stereo / MS StereoCodec ID : 55Codec ID/Hint : MP3Duration : 7mn 7sBit rate mode : ConstantBit rate : 96.0 KbpsChannel(s) : 2 channelsSampling rate : 44.1 KHzResolution : 16 bitsStream size : 4.90 MiB (16%)Alignment : Aligned on interleavesInterleave, duration : 26 ms (0.78 video frame)